File-Portal

Скачать Линда Ворона Торрент

Рейтинг: 4.9/5.0 (242 проголосовавших)

Категория: Торрент-файлы

Описание

Скачать музыку Линда – Ворона (1996) через торрент

Скачать музыку Линда – Ворона / [1996, Рок, FLAC] - торрент

Линда – Ворона
Формат: FLAC, (image + .cue), lossless
Год выпуска: 1996
Страна: Россия
Жанр: Рок
Продолжительность: 00:53:10
Описание:
01. Холод 01:51
02. Северный Ветер 05:37
03. Никогда 04:30
04. Ворона 05:32
05. Марихуана 05:33
06. Сидите Потише 05:17
07. Никому Я Тебя Не Отдам 05:06
08. Дикие 04:15
09. Волчица 03:36
10. Круг От Руки 04:29
11. Мы 03:17
12. От Холода До Тепла 04:01
Доп. информация:

Exact Audio Copy V1.0 beta 3 from 29. August 2011

Отчёт EAC об извлечении, выполненном 10. сентября 2015, 5:32

Дисковод: HL-DT-STDVDRAM GH24NSB0 Adapter: 0 ID: 1

Режим чтения. Достоверность
Использование точного потока. Да
Отключение кэша аудио. Нет
Использование указателей C2. Нет

Коррекция смещения при чтении. 6
Способность читать области Lead-in и Lead-out. Нет
Заполнение пропущенных сэмплов тишиной. Да
Удаление блоков с тишиной в начале и конце. Нет
При вычислениях CRC использовались нулевые сэмплы. Да
Интерфейс. Встроенный Win32-интерфейс для Win NT/2000

Выходной формат. Пользовательский кодировщик
Выбранный битрейт. 768 kBit/s
Качество. Высокий
Добавление ID3-тега. Нет
Утилита сжатия. C rogram Files (x86)Exact Audio CopyFLACFLAC.EXE
Дополнительные параметры. -6 -V -T "ARTIST=%artist%" -T "TITLE=%title%" -T "ALBUM=%albumtitle%" -T "DATE=%year%" -T "TRACKNUMBER=%tracknr%" -T "GENRE=%genre%" -T "COMMENT=%comment%" -T "BAND=%albuminterpret%" -T "ALBUMARTIST=%albuminterpret%" -T "COMPOSER=%composer%" %haslyrics%--tag-from-file=LYRICS="%lyricsfile%"%haslyrics% -T "DISCNUMBER=%cdnumber%" -T "TOTALDISCS=%totalcds%" -T "TOTALTRACKS=%numtracks%" %hascover%--picture="%coverfile%"%hascover% %source% -o %dest%

TOC извлечённого CD

Трек | Старт | Длительность | Начальный сектор | Конечный сектор
---------------------------------------------------------------------
1 | 0:00.00 | 1:51.66 | 0 | 8390
2 | 1:51.66 | 5:37.71 | 8391 | 33736
3 | 7:29.62 | 4:30.37 | 33737 | 54023
4 | 12:00.24 | 5:32.48 | 54024 | 78971
5 | 17:32.72 | 5:33.24 | 78972 | 103970
6 | 23:06.21 | 5:17.50 | 103971 | 127795
7 | 28:23.71 | 5:06.32 | 127796 | 150777
8 | 33:30.28 | 4:15.31 | 150778 | 169933
9 | 37:45.59 | 3:36.11 | 169934 | 186144
10 | 41:21.70 | 4:29.14 | 186145 | 206333
11 | 45:51.09 | 3:17.17 | 206334 | 221125
12 | 49:08.26 | 4:01.01 | 221126 | 239201

Характеристики диапазона извлечения и сообщения об ошибках

Имя файла C:UsersДОМDesktopЛинда - Ворона.wav

Пиковый уровень 100.0 %
Скорость извлечения 3.7 X
Качество диапазона 100.0 %
CRC копии D7DD65A2
Копирование. OK

Ошибок не произошло

Трек 1 точность не определена (достоверность 10) [9C188285], AccurateRip вернул [337B8578] (AR v2)
Трек 2 точность не определена (достоверность 10) [BFD2AA47], AccurateRip вернул [FFEF1566] (AR v2)
Трек 3 точность не определена (достоверность 10) [9DA7E7D7], AccurateRip вернул [D7F752FD] (AR v2)
Трек 4 точность не определена (достоверность 10) [F97F82E5], AccurateRip вернул [6ECDC0C8] (AR v2)
Трек 5 точность не определена (достоверность 10) [10E4F1AE], AccurateRip вернул [1C3ED479] (AR v2)
Трек 6 точность не определена (достоверность 10) [3328ADB3], AccurateRip вернул [58A52B4E] (AR v2)
Трек 7 точность не определена (достоверность 10) [4DC6A0EB], AccurateRip вернул [536C93EC] (AR v2)
Трек 8 точность не определена (достоверность 10) [10844623], AccurateRip вернул [6BAB09FA] (AR v2)
Трек 9 точность не определена (достоверность 10) [667D2747], AccurateRip вернул [1331381F] (AR v2)
Трек 10 точность не определена (достоверность 10) [2535C127], AccurateRip вернул [E0A32FF8] (AR v2)
Трек 11 точность не определена (достоверность 10) [AD2DC298], AccurateRip вернул [BD80ADF5] (AR v2)
Трек 12 точность не определена (достоверность 10) [D490FFF9], AccurateRip вернул [3827001A] (AR v2)

Ни один трек не прошёл проверки на точность
В вашей базе может быть иной вариант штамповки диска

---- CUETools DB Plugin V2.1.3

[CTDB TOCID: WfoOpjDhWph.RbmFrYcI4Sx6YeA-] found, Submit result: WfoOpjDhWph.RbmFrYcI4Sx6YeA- has been confirmed
[ac13894c] (8/ Accurately ripped

скачать линда ворона торрент:

  • скачать
  • скачать
  • Другие статьи

    Линда - Коллекция 20 Альбомов (1994-2013) FLAC скачать торрент

    Кратко о Torrent-Games.net

    Кратко о нас: torrent-games.net открылся в 2010 году 9 января. Мы первый игровойторрент трекер. наш torrent games полностью посвящён играм ,в связи с тем что наша аудитория очень выросла,мы стали очень популярными. Для вашего удобства мы сделали разделы, торрент фильмы которые можно скачать через торрент. у нас самый большой Игровой форум для геймеров ,где находятся все геймеры России и Украины,и не только они.
    Мы каждый день пытаемся улучшить наш игровой торрент трекер ,спасибо вам за то,что заходите к нам и качаете игры. фильмы и общаетесь с нами. Администрация torrent-games.net обещает вам что всегда будет радовать игровыми новинками. новостями игровых индустрий

    Линда - Коллекция [20 Альбомов] (1994-2013) FLAC

    Название: Коллекция [20 Альбомов]
    Исполнитель: Линда
    Годы: 1994-2013
    Жанр:Downtempo, Electro. Alternative Rock
    Страна: РФ
    Продолжительность: 18:06:17
    Формат/Кодек: FLAC

    Информация о.
    Светлана Львовна Гейман (род. 29 апреля 1977 года, Кентау, Чимкентская область), более известная под псевдонимом Линда — российская певица, исполняющая песни в электронном и этническом стилях.

    Первое время автором музыки для Линды был композитор Максим Фадеев. После расставания с Фадеевым Линда начала писать песни самостоятельно, а также сотрудничала с такими авторами, как Евгений Поздняков,Мара и Любаша. За свою карьеру певица продала более 3 миллионов экземпляров альбомов в России, в том числе «Песни тибетских лам» — 250 тысяч, «Ворона» — 1,5 миллиона, «Ворона (Remix-Remake)» — 500 тысяч, «Линда» — 100 тысяч, «Атака» — 500 тысяч, «АлеАда» — 125 тысяч, «Sкор-Пионы» — 85 тысяч.

    Фактически в данной раздаче представлена полная дискография творчества Линды, исключая переиздания.

    1994 - Песни тибетских лам 51:27 883 kb/s 338 Mb



    Треклист :
    01. Сделай так [6:55]
    02. Беги на цыпочках [3:19]
    03. Песни тибетских лам [4:48]
    04. Мало огня [5:36]
    05. Танец под водой [5:30]
    06. Девять ангелов [4:43]
    07. Девочки с острыми зубками [2:35]
    08. Купание в грязной воде [5:08]
    09. Я не буду стрелять [3:36]
    10. Киска [3:15]
    11. Я не останусь одна [3:18]
    12. Небесный город [2:45]

    1994 - Танцы тибетских лам 46:50 935 kb/s 325 Mb



    Треклист :
    01. Ожог [3:30]
    02. Нирвана [5:42]
    03. Можно купаться в грязной воде [4:24]
    04. Ляп, ляп, ляп [2:51]
    05. Пусть будет тихо [4:12]
    06. Распахни меня [2:38]
    07. Мало огня [2:56]
    08. Электрика I [3:23]
    09. Электрика II [3:19]
    10. Шаманка [3:47]
    11. Загляни за Солнце [3:04]
    12. Поиграй со мной [4:04]
    13. Подарок [2:59]

    1996 - Ворона 53:09 849 kb/s 361 Mb



    Треклист :
    01. Холод [1:52]
    02. Северный ветер [5:38]
    03. Никогда [4:30]
    04. Ворона [5:33]
    05. Марихуана [5:33]
    06. Сидите потише [5:18]
    07. Никому я тебя не отдам [5:06]
    08. Дикие [4:15]
    09. Волчица [3:36]
    10. Круг от руки [4:29]
    11. Мы [3:17]
    12. От холода до тепла [4:01]

    1997 - Ворона (Remix-Remake) 37:27 909 kb/s 247 Mb



    Треклист :
    01. Ворона [5:05]
    02. Северный ветер [4:54]
    03. Никогда [4:33]
    04. Марихуана [4:50]
    05. Мы [5:01]
    06. Сидите потише [4:42]
    07. Никому я тебя не отдам [5:12]
    08. Ворона 2 [3:09]

    1998 - Концерт 01:38:26



    CD1 :
    01. Вступление [4:45]
    02. Купание в грязной воде [5:16]
    03. Девять ангелов [5:12]
    04. Девочки с острыми зубками [3:29]
    05. Беги на цыпочках [3:50]
    06. Дикие [5:52]
    07. Танец под водой [5:14]
    08. Киска [3:59]
    09. Сидите потише [5:03]
    10. Круг от руки [4:06]
    11. Сделай так [6:58]

    CD2 :
    01. Ворона [5:04]
    02. Море [4:32]
    03. Северный ветер [6:53]
    04. Никому я тебя не отдам [7:23]
    05. Волчица [4:33]
    06. Марихуана [6:10]
    07. Мало огня [7:34]
    08. Кода [2:32]

    1999 - Белое на белом 01:09:07 864 kb/s 428 Mb



    Треклист :
    01. Сделай так [6:52]
    02. Мало огня [5:34]
    03. Танец под водой [5:27]
    04. Северный ветер [5:11]
    05. Никогда [3:47]
    06. Ворона [5:07]
    07. Марихуана [5:10]
    08. Никому я тебя не отдам [4:55]
    09. Круг от руки [4:09]
    10. Отпусти меня [4:38]
    11. Я не могу [4:55]
    12. Золотая вода [4:03]
    13. На краю [3:46]
    14. Белое на белом [5:35]

    1999 - Плацента 45:16 838 kb/s 282 Mb



    Треклист :
    01. Взгляд изнутри [4:59]
    02. Отпусти меня [4:37]
    03. Дыханье [3:36]
    04. Дождь [6:43]
    05. Я не могу [4:54]
    06. Золотая вода [4:03]
    07. На краю [3:47]
    08. Ангелы [4:38]
    09. Там где я и ты [4:38]
    10. 2001 [3:21]

    2000 - Эмбрион (Right CD) 42:47 957 kb/s 299 Mb



    Треклист :
    01. Ничего не бойся! [6:48]
    02. На краю белой реки [3:53]
    03. Я не могу [5:13]
    04. Уносит. [4:35]
    05. Взгляд изнутри [4:10]
    06. Что будет? [3:25]
    07. С тобой. [4:50]
    08. Изнанка света [3:43]
    09. Золотая вода [6:10]

    2000 - Эмбрион (Wrong CD) 44:06 929 kb/s 323 Mb



    Треклист :
    01. Отпусти [5:23]
    02. Дыханье [4:26]
    03. Ангелы [5:11]
    04. Отпусти меня [4:49]
    05. Я с тобой ничего. [4:47]
    06. Вопреки [4:30]
    07. Я не помню тебя [5:55]
    08. Изнанка [3:55]
    09. Дождь [5:11]

    2001 - Зрение 01:00:22 979 kb/s 453 Mb



    Треклист :
    01. Зрение [3:04]
    02. Небо льёт [4:48]
    03. Две улитки [3:53]
    04. Шерстяная дата [4:07]
    05. Шоколад и слеза [4:26]
    06. Бей и гладь [4:16]
    07. Домой [4:06]
    08. Открою я двери [4:24]
    09. Лихорадка в темноте [4:24]
    10. На седьмом небе [3:57]
    11. Над гнездом высоты [3:58]
    12. Не проснуться нам двоим [4:49]
    13. Берёза [10:10]

    2001 - Линда 01:08:35



    Треклист :
    01. Сделай так [6:51]
    02. Мало огня [5:34]
    03. Танец под водой [5:26]
    04. Северный ветер [5:11]
    05. Круг от руки [4:09]
    06. Никогда [3:47]
    07. Ворона [5:06]
    08. Никому я тебя не отдам [4:55]
    09. Марихуана [5:11]
    10. Сидите потише [4:50]
    11. Я не могу [4:54]
    12. Отпусти меня [4:37]
    13. Изнанка света [3:54]
    14. Две улитки [4:10]

    2003 - Цепи и кольца 42:37 926 kb/s 287 Mb



    Треклист :
    01. Цепи и кольца (Radio Edit - Hardrum Version) [3:27]
    02. Цепи и кольца (Original) [3:54]
    03. Цепи и кольца (Globass Club Mix) [5:57]
    04. Цепи и кольца (Pop Version) [3:33]
    05. Цепи и кольца (Pop Remix by Anton Savichev) [3:52]
    06. Chains & Rings (Radio Edit - Hardrum Version) [3:26]
    07. Chains & Rings (Original) [3:40]
    08. Chains & Rings (Globass Club Mix) [5:57]
    09. Chains & Rings (Globass Hard Mix) [3:49]
    10. White Birch (Oroginal Version) [5:02]

    2004 - Атака 54:35 981 kb/s 388 Mb



    Треклист :
    01. Охота [2:25]
    02. Мир против нас [3:22]
    03. Леска [4:43]
    04. Цепи и кольца [3:37]
    05. Агония [3:25]
    06. Пуля [3:34]
    07. Страх [4:19]
    08. Беги [4:32]
    09. Город-музей [4:19]
    10. Так кричали птицы [4:17]
    11. В пропасть [3:06]
    12. Мысли-пираньи [4:04]
    13. Подвиги [5:09]
    14. Боль [3:43]

    2004 - Атака (Неизданный вариант) 35:24



    Треклист :
    01. Intro [2:07]
    02. Леска [4:04]
    03. Цепи и кольца (Version 1) [3:40]
    04. Цепи и кольца (Version 2) [3:45]
    05. Агония [3:24]
    06. Пуля [3:28]
    07. Беги [3:24]
    08. Так кричали птицы [3:51]
    09. Так кричали птицы (Instrumental) [4:14]
    10. Агония (Instrumental) [3:27]

    2004 - Жизнь 01:14:36 956 kb/s 518 Mb



    Треклист :
    01. Вступление [4:44]
    02. Купание в грязной воде [5:13]
    03. Беги на цыпочках [3:43]
    04. Танец под водой [5:09]
    05. Сидите потише [5:03]
    06. Круг от руки [4:06]
    07. Сделай так [6:50]
    08. Ворона [4:47]
    09. Северный ветер [6:52]
    10. Никому я тебя не отдам [7:22]
    11. Волчица [4:34]
    12. Марихуана [6:11]
    13. Мало огня [7:34]
    14. Кода [2:28]

    2005 - Почти близнецы 01:18:30 955 kb/s 538 Mb



    Треклист :
    01. Тай! [3:55]
    02. Северный ветер [4:44]
    03. Круг от руки [4:05]
    04. Никому я тебя не отдам [4:38]
    05. Отпусти меня [4:34]
    06. Мало огня [5:26]
    07. Никогда [3:44]
    08. Золотая вода [3:53]
    09. Марихуана [5:07]
    10. Ворона [4:59]
    11. Цепи и кольца (Globass Hard Version) [3:57]
    12. Танец под водой (Arrival Version) [4:03]
    13. Агония (Magic Mix) [3:02]
    14. Ворона (Symphonic Version) [4:09]
    15. Марихуана (Sadhu-Babu Mix) [4:08]
    16. Никому я тебя не отдам (Spase Tribe Mix) [5:41]
    17. Ворона (Biopsixoz Version) [5:14]
    18. Встреча [3:12]

    2006 - АлеАда 43:52 953 kb/s 363 Mb



    Треклист :
    01. Любовь в конверте [3:51]
    02. Мечена я [3:54]
    03. Я украду! [3:04]
    04. Толкай на любовь! [3:17]
    05. Роковая любовь [3:49]
    06. Я и гейша [3:34]
    07. По рельсам любви [4:00]
    08. Я влетела в тебя [3:55]
    09. Белый шторм [3:44]
    10. АлеАда [3:41]
    11. Я украду! (Radioversion) [3:03]
    12. Толкай на любовь! (Remix) [4:01]

    2008 - Sкор-Пионы 43:41 905 kb/s 288 Mb



    Треклист :
    01. Sкор-Пионы [3:32]
    02. Пять минут [3:40]
    03. Охота на. [3:28]
    04. Меланхолия [4:05]
    05. Последний раз герои [3:09]
    06. Н.Л.З. (Нежный, ласковый зверь) [4:12]
    07. Колыбель [3:50]
    08. Кровь [3:52]
    09. Замедленная бомба [3:30]
    10. Чёрно-снежная [3:29]
    11. Охота на. (Fight Club Remix) [3:24]
    12. Sкор-Пиано. (Remix) [3:30]

    2012 - Acoustics by Bloody Faeries 49:23 969 kb/s 344 Mb



    Треклист :
    01. Ой-да [4:33]
    02. Круг от руки [3:12]
    03. Боль [4:36]
    04. Lieber Tango [3:07]
    05. Леска [5:13]
    06. Пять минут [3:29]
    07. Маргарита [2:57]
    08. Lady Macbeth [3:36]
    09. Ворона [4:41]
    10. Скрябин Prelude (Ne Me Quite Pas) [2:15]
    11. Марихуана (Mama, Mama) [3:17]
    12. Я украду [3:52]
    13. Ой-да (Bonus Track) [4:35]

    2013 - Лай, @! 46:07 891 kb/s 324 Mb



    Треклист :
    01. Они так [3:50]
    02. Повесь меня [3:35]
    03. Интеллектуальная шлюха [3:23]
    04. Мозговые помехи [3:42]
    05. Прямо в рай! [4:28]
    06. Отказ [3:12]
    07. Лай, собака [2:57]
    08. Крик [3:43]
    09. Паранойя [3:25]
    10. Черновики [3:28]
    11. Они так (Acoustic) [3:23]
    12. Мышеловка [3:09]
    13. Hidden Track [3:52]

    Внимание!
    Все аудиозаписи предназначены исключительно для предварительного ознакомительного прослушивания. Все права на исходные аудиоматериалы принадлежат соответствующим организациям и частным лицам. Если вы оставляете у себя в каком-либо виде эти аудиозаписи после ознакомительного прослушивания, но не приобретаете соответствующую лицензионную запись - вы нарушаете закон об авторском праве, что может повлечь за собой преследование по соответствующим статьям существующего законодательства.

    Как скачивать если раздача заблокирована, Чтобы узнать переходим по ссылке: http://torrent-games.net/forum/9-62705-1#866995

    Скачать Линда - Ворона (1996) FLAC, Lossless, image

    Год: 1996
    Жанр: Electronic, Rock
    Издание: C.M.P. ‎– 070 100-2
    Продолжительность: 00:53:10
    Кодек: FLAC
    Битрейт: Lossless
    Тип рипа: image + .cue
    Наличие сканов в раздаче: Да
    Источник: Рип из собственной коллекции
    Треклист:
    01. Холод 01:51
    02. Северный Ветер 05:37
    03. Никогда 04:30
    04. Ворона 05:32
    05. Марихуана 05:33
    06. Сидите Потише 05:17
    07. Никому Я Тебя Не Отдам 05:06
    08. Дикие 04:15
    09. Волчица 03:36
    10. Круг От Руки 04:29
    11. Мы 03:17
    12. От Холода До Тепла 04:01

    Отчёт EAC:

    Exact Audio Copy V1.0 beta 6 from 9. April 2015
    EAC extraction logfile from 3. March 2016, 18:21
    Линда / Ворона
    Used drive : HL-DT-STDVDRAM GH24NSB0 Adapter: 1 ID: 0
    Read mode : Secure
    Utilize accurate stream : Yes
    Defeat audio cache : Yes
    Make use of C2 pointers : No
    Read offset correction : 6
    Overread into Lead-In and Lead-Out : No
    Fill up missing offset samples with silence : Yes
    Delete leading and trailing silent blocks : No
    Null samples used in CRC calculations : Yes
    Used interface : Native Win32 interface for Win NT & 2000
    Used output format : User Defined Encoder
    Selected bitrate : 768 kBit/s
    Quality : High
    Add ID3 tag : No
    Command line compressor : C:\Program Files (x86)\Exact Audio Copy\FLAC\FLAC.EXE
    Additional command line options : -8 -V -T "TITLE=%title%" -T "ARTIST=%artist%" -T "ALBUMARTIST=%albumartist%" -T "ALBUM=%albumtitle%" -T "DATE=%year%" -T "TRACKNUMBER=%tracknr%" -T "TRACKTOTAL=%numtracks%" -T "GENRE=%genre%" -T "COMMENT=%comment%" -T "PERFORMER=%albuminterpret%" -T "COMPOSER=%composer%" %source% -o %dest%
    TOC of the extracted CD
    Track | Start | Length | Start sector | End sector
    ---------------------------------------------------------
    1 | 0:00.00 | 1:51.66 | 0 | 8390
    2 | 1:51.66 | 5:37.71 | 8391 | 33736
    3 | 7:29.62 | 4:30.37 | 33737 | 54023
    4 | 12:00.24 | 5:32.48 | 54024 | 78971
    5 | 17:32.72 | 5:33.24 | 78972 | 103970
    6 | 23:06.21 | 5:17.50 | 103971 | 127795
    7 | 28:23.71 | 5:06.32 | 127796 | 150777
    8 | 33:30.28 | 4:15.31 | 150778 | 169933
    9 | 37:45.59 | 3:36.11 | 169934 | 186144
    10 | 41:21.70 | 4:29.14 | 186145 | 206333
    11 | 45:51.09 | 3:17.17 | 206334 | 221125
    12 | 49:08.26 | 4:01.01 | 221126 | 239201
    Range status and errors
    Selected range
    Filename C:\Users\ДОМ\Desktop\Линда - Ворона.wav
    Peak level 100.0 %
    Extraction speed 1.7 X
    Range quality 100.0 %
    Test CRC D7DD65A2
    Copy CRC D7DD65A2
    Copy OK
    No errors occurred
    AccurateRip summary
    Track 1 cannot be verified as accurate (confidence 10) [9C188285], AccurateRip returned [337B8578] (AR v2)
    Track 2 cannot be verified as accurate (confidence 10) [BFD2AA47], AccurateRip returned [FFEF1566] (AR v2)
    Track 3 cannot be verified as accurate (confidence 10) [9DA7E7D7], AccurateRip returned [D7F752FD] (AR v2)
    Track 4 cannot be verified as accurate (confidence 10) [F97F82E5], AccurateRip returned [6ECDC0C8] (AR v2)
    Track 5 cannot be verified as accurate (confidence 10) [10E4F1AE], AccurateRip returned [1C3ED479] (AR v2)
    Track 6 cannot be verified as accurate (confidence 10) [3328ADB3], AccurateRip returned [58A52B4E] (AR v2)
    Track 7 cannot be verified as accurate (confidence 10) [4DC6A0EB], AccurateRip returned [536C93EC] (AR v2)
    Track 8 cannot be verified as accurate (confidence 10) [10844623], AccurateRip returned [6BAB09FA] (AR v2)
    Track 9 cannot be verified as accurate (confidence 10) [667D2747], AccurateRip returned [1331381F] (AR v2)
    Track 10 cannot be verified as accurate (confidence 10) [2535C127], AccurateRip returned [E0A32FF8] (AR v2)
    Track 11 cannot be verified as accurate (confidence 10) [AD2DC298], AccurateRip returned [BD80ADF5] (AR v2)
    Track 12 cannot be verified as accurate (confidence 10) [D490FFF9], AccurateRip returned [3827001A] (AR v2)
    No tracks could be verified as accurate
    You may have a different pressing from the one(s) in the database
    End of status report
    ---- CUETools DB Plugin V2.1.6
    [CTDB TOCID: WfoOpjDhWph.RbmFrYcI4Sx6YeA-] found
    Submit result: already submitted
    Track | CTDB Status
    1 | (15/16) Accurately ripped
    2 | (15/16) Accurately ripped
    3 | (16/16) Accurately ripped
    4 | (16/16) Accurately ripped
    5 | (16/16) Accurately ripped
    6 | (16/16) Accurately ripped
    7 | (16/16) Accurately ripped
    8 | (16/16) Accurately ripped
    9 | (16/16) Accurately ripped
    10 | (16/16) Accurately ripped
    11 | (16/16) Accurately ripped
    12 | (16/16) Accurately ripped
    ==== Log checksum B97C4B091C1301341E471DD02A87BF735B3853F15F9A9F5F692E1594D6BAE7E8 ====

    Cue Sheet (.cue):

    REM GENRE " Electronic, Rock "
    REM DATE 1996
    REM DISCID 8F0C750C
    REM COMMENT "ExactAudioCopy v1.0b6"
    PERFORMER "Линда"
    TITLE "Ворона"
    FILE "Линда - Ворона.flac" WAVE
    TRACK 01 AUDIO
    TITLE "Холод"
    PERFORMER "Линда"
    INDEX 01 00:00:00
    TRACK 02 AUDIO
    TITLE "Северный Ветер"
    PERFORMER "Линда"
    INDEX 01 01:51:66
    TRACK 03 AUDIO
    TITLE "Никогда"
    PERFORMER "Линда"
    INDEX 01 07:29:62
    TRACK 04 AUDIO
    TITLE "Ворона"
    PERFORMER "Линда"
    INDEX 01 12:00:24
    TRACK 05 AUDIO
    TITLE "Марихуана"
    PERFORMER "Линда"
    INDEX 01 17:32:72
    TRACK 06 AUDIO
    TITLE "Сидите Потише"
    PERFORMER "Линда"
    INDEX 01 23:06:21
    TRACK 07 AUDIO
    TITLE "Никому Я Тебя Не Отдам"
    PERFORMER "Линда"
    INDEX 01 28:23:71
    TRACK 08 AUDIO
    TITLE "Дикие"
    PERFORMER "Линда"
    INDEX 01 33:30:28
    TRACK 09 AUDIO
    TITLE "Волчица"
    PERFORMER "Линда"
    INDEX 01 37:45:59
    TRACK 10 AUDIO
    TITLE "Круг От Руки"
    PERFORMER "Линда"
    INDEX 01 41:21:70
    TRACK 11 AUDIO
    TITLE "Мы"
    PERFORMER "Линда"
    INDEX 01 45:51:09
    TRACK 12 AUDIO
    TITLE "От Холода До Тепла"
    PERFORMER "Линда"
    INDEX 01 49:08:26

    Отчёт auCDtect Task manager:

    -----------------------
    DON'T MODIFY THIS FILE
    -----------------------
    PERFORMER: auCDtect Task Manager, ver. 1.6.0 RC1 build 1.6.0.1
    Copyright (c) 2008-2010 y-soft. All rights reserved
    http://y-soft.org
    ANALYZER: auCDtect: CD records authenticity detector, version 0.8.2
    Copyright (c) 2004 Oleg Berngardt. All rights reserved.
    Copyright (c) 2004 Alexander Djourik. All rights reserved.
    FILE: Линда - Ворона.flac
    Size: 333945468 Hash: DBA4DE82F864B7AC4F7D55D1AD0F6659 Accuracy: -m0
    Conclusion: CDDA 100%
    Signature: C6328F5056F7FEE5348D1C7D790E8946D55FA7F8

    Спектрограмма:

    Время раздачи: 24 часа до 5 скачавших (до появления первых 3-5 скачавших) -
    Поглощение/вытеснение
    Только с согласия релизера
    Pashketan