File-Portal

Скачать Торрент Гаро Кровавая Луна

Рейтинг: 4.0/5.0 (90 проголосовавших)

Категория: Торрент-файлы

Описание

Скачать Garo: Guren no Tsuki

Garo: Guren no Tsuki / Garo: Crimson Moon / Гаро: Кровавая луна Жанр: приключения, комедия, фэнтези
Тип: TV-сериал
Продолжительность: 23 эпизода по 25 минут
Выпуск: c 10.10.2015 по 02.04.2016
Автор: Амэмия Кэйта
Режиссер: Вакабаяси Ацуси
Производство: MAPPA Информационные ссылки: AniDB || World Art || MAL || ANN Релиз подготовлен студией AniDub
  • Тип озвучки: Многоголосая, закадровая
Описание:
В мире, где обычные люди остерегаются живущих бок о бок с ними ведьм, истинными врагами человечества являются бесплотные демоны, питающиеся живой плотью и черпающие силу из страха. Ведьмы же и так называемые рыцари Макаи, обладающие могущественными магическими доспехами, - единственные защитники мирных людей от происков нечисти, способные изгнать ее и уничтожить. Жизнь рыцарей и помогающих им алхимиков Макаи нелегка: помимо опасных врагов им приходится противостоять собственной разрушительной силе, потеря контроля над которой чревата серьезными ранами и даже смертью.

Второй сезон аниме "Гаро", основанного на популярной телевизионной франшизе, рассказывает новую историю о бойцах с питающимися людскими сердцами мононоке. Вместо приключений в стране, чей облик базировался на средневековой Европе, зрителей ждет действо в японском антураже эпохи Хэйан. Носители тайного знания, защищающие людей от демонов, вновь сойдутся с ними в смертельной битве, привлекая на свою сторону помимо блистающих доспехов Макаи, синтоистскую магию. Основанная на сказаниях о мудреце Сеймее и японском фольклоре, эта история добавит во франшизу "Гаро" новые краски. Качество: HDTVRip | Энкод: Leopard-Raws
Формат: MKV
Видео: x264, 1280x720,

2 570 kbps, 23.976 fps
Аудио: AAC, 192 kbps, 48.0 kHz, 2 ch
Аудио: AAC, 192 kbps, 48.0 kHz, 2 ch
Субтитры: ASS, Встроенные, Полные | Надписи « Shift » (01-02), « AniLibria » (03-23)

01. Онмё
02. Опутанный клинок
03. Проклятье
04. Кагуя
05. Хакамадаре
06. Демон в тени
07. Мать и Дочь
08. Братья
09. Свет и Разрушение
10. 1/10
11. Белая Сталь
12. Конфликт
13. Сеймэй
14. Луна души
15. Хуже всего
16. Абсолютное зло
17. Потухшая звезда
18. Ярость
19. Сосуд
20. Схватка
21. Резонанс
22. Рудра
23. Атака на Луну

General
Unique ID : 187779814192335259191221110910458405921 (0x8D4513A34BC59974BD2CBA06E8522421)
Complete name : Garo - Guren no Tsuki [AD Studio]\Garo - Guren no Tsuki - 01 (1280x720 x264 AAC).mkv
Format : Matroska
Format version : Version 4 / Version 2
File size : 514 MiB
Duration : 24mn 19s
Overall bit rate : 2 953 Kbps
Encoded date : UTC 2016-07-04 11:24:42
Writing application : mkvmerge v9.2.0 ('Photograph') 64bit
Writing library : libebml v1.3.3 + libmatroska v1.4.4
Attachments : GOTHICB.TTF

Video
ID : 1
Format : AVC
Format/Info : Advanced Video Codec
Format profile : High@L4.1
Format settings, CABAC : Yes
Format settings, ReFrames : 4 frames
Codec ID : V_MPEG4/ISO/AVC
Duration : 24mn 19s
Bit rate : 2 570 Kbps
Width : 1 280 pixels
Height : 720 pixels
Display aspect ratio : 16:9
Frame rate mode : Constant
Frame rate : 23.976 (24000/1001) fps
Color space : YUV
Chroma subsampling : 4:2:0
Bit depth : 8 bits
Scan type : Progressive
Bits/(Pixel*Frame) : 0.116
Stream size : 447 MiB (87%)
Writing library : x264 core 129 r2245+729M 1a52e03
Encoding settings : cabac=1 / ref=4 / deblock=1:1:-1 / analyse=0x3:0x113 / me=umh / subme=9 / psy=1 / fade_compensate=0.00 / psy_rd=1.00:0.00 / mixed_ref=1 / me_range=24 / chroma_me=1 / trellis=2 / 8x8dct=1 / cqm=0 / deadzone=21,11 / fast_pskip=1 / chroma_qp_offset=-2 / threads=8 / lookahead_threads=1 / sliced_threads=0 / nr=0 / decimate=1 / interlaced=0 / bluray_compat=0 / constrained_intra=0 / fgo=0 / bframes=9 / b_pyramid=2 / b_adapt=2 / b_bias=0 / direct=1 / weightb=1 / open_gop=0 / weightp=2 / keyint=240 / keyint_min=24 / scenecut=40 / intra_refresh=0 / rc=crf / mbtree=0 / crf=18.5 / qcomp=0.72 / qpmin=0 / qpmax=69 / qpstep=4 / ip_ratio=1.40 / pb_ratio=1.30 / aq=1:0.85
Language : Japanese
Default : Yes
Forced : No
Color range : Limited
Color primaries : BT.709
Transfer characteristics : BT.709
Matrix coefficients : BT.709

Audio #1
ID : 2
Format : AAC
Format/Info : Advanced Audio Codec
Format profile : LC
Codec ID : A_AAC
Duration : 24mn 19s
Bit rate : 187 Kbps
Channel(s) : 2 channels
Channel positions : Front: L R
Sampling rate : 48.0 KHz
Frame rate : 46.875 fps (1024 spf)
Compression mode : Lossy
Stream size : 32.6 MiB (6%)
Title : AD Studio
Language : Russian
Default : Yes
Forced : No

Audio #2
ID : 3
Format : AAC
Format/Info : Advanced Audio Codec
Format profile : LC
Codec ID : A_AAC
Duration : 24mn 19s
Bit rate : 192 Kbps
Channel(s) : 2 channels
Channel positions : Front: L R
Sampling rate : 48.0 KHz
Frame rate : 46.875 fps (1024 spf)
Compression mode : Lossy
Stream size : 33.4 MiB (6%)
Title : Original
Language : Japanese
Default : No
Forced : No

Text #1
ID : 4
Format : ASS
Codec ID : S_TEXT/ASS
Codec ID/Info : Advanced Sub Station Alpha
Duration : 19mn 40s
Bit rate : 1 bps
Count of elements : 3
Compression mode : Lossless
Stream size : 240 Bytes (0%)
Title : Надписи
Language : Russian
Default : Yes
Forced : No

Text #2
ID : 5
Format : ASS
Codec ID : S_TEXT/ASS
Codec ID/Info : Advanced Sub Station Alpha
Duration : 23mn 55s
Bit rate : 77 bps
Count of elements : 195
Compression mode : Lossless
Stream size : 13.6 KiB (0%)
Title : Субтитры
Language : Russian
Default : No
Forced : No

Garo: Guren no Tsuki / Garo: Crimson Moon / Гаро: Кровавая луна [2015, TV, 23 ep] HDTV 720p Raw+Rus

04 Июл 2016 20:22:30

создание сайтов All rights reserved © 2015-2017

скачать торрент гаро кровавая луна:

  • скачать
  • скачать
  • Другие статьи

    Скачать аниме Гаро: Багровая луна

    Скачать аниме Гаро: Багровая луна / Garo: Guren no Tsuki (Тамура Котаро) [TV-2] [1-13 из 24] [AnimeVost] [RAW] [RUS+JAP+SUB] [2015-2016 г. приключения, HDTVRip] [720p] - торрент

    Гаро: Багровая луна / Garo: Guren no Tsuki

    Перевод: Любительский (одноголосый)
    Субтитры: Английские
    Хардсаб: отсутствует

    Формат: HDTVRip, MKV, H.264, AAC
    Страна: Япония
    Режиссер: Вакабаяси Ацуси
    Жанр: приключения
    Продолжительность: ТВ (>24 эп.), 25 мин.
    Год выпуска / период трансляции: С 10.10.2015
    Озвучка: AnimeVost

    Описание: События развернутся в Японии периода Хэйан (794—1185), а главными героями окажутся могущественная и загадочная Макай-жрица Сеймей, обожающая всякие странные вещи, и её ученик Райко, унаследовавший титул Золотого Рыцаря Гаро. Вместе они сражаются с демоническими созданиями под названием Ужасы — разумеется, не без помощи других Рыцарей Макай!

    Видео: 1280x720p (16:9), 23.976 fps, MPEG4 Video (H264), High@L3.1

    1885 kbps, 0.089bit/pixel
    Аудио: [RUS]44.1KHz, AAC, 2ch,

    160Kbps avg
    Аудио: [JAP]44.1KHz, AAC, 2ch,


    Серия 1: «Эпизод 1!»
    Серия 2: «Эпизод 2!»
    Серия 3: «Эпизод 3!»
    Серия 4: «Эпизод 4!»
    Серия 5: «Эпизод 5!»
    Серия 6: «Эпизод 6!»
    Серия 7: «Эпизод 7!»
    Серия 8: «Эпизод 8!»
    Серия 9: «Эпизод 9!»
    Серия 10: «Эпизод 10!»
    Серия 11: «Эпизод 11!»
    Серия 12: «Эпизод 12!»
    Серия 13: «Эпизод 13!»


    Полное имя. I:\СЕРИАЛЫ\garo_S02_[my-tfile.org]\garo_s02_e01_[my-tfile.org].mkv
    Формат. Matroska
    Размер файла. 457 Мегабайт
    Продолжительность. 24 м.
    Общий поток. 2641 Кбит/сек
    Дата кодирования. UTC 2015-10-09 19:13:47
    Программа кодирования. mkvmerge v8.3.0 ('Over the Horizon') 64bit
    Библиотека кодирования. libebml v1.3.1 + libmatroska v1.4.2

    Видео
    Идентификатор. 1
    Формат. AVC
    Формат/Информация. Advanced Video Codec
    Профайл формата. High@L3.1
    Параметры CABAC формата. Да
    Параметры ReFrames формата. 2 кадры
    Режим смешивания. Container profile=Unknown@3.1
    Идентификатор кодека. V_MPEG4/ISO/AVC
    Продолжительность. 24 м.
    Ширина. 1280 пикс.
    Высота. 720 пикс.
    Соотношение кадра. 16:9
    Частота кадров. 23,976 кадр/сек
    Разрешение. 8 бит
    Колориметрия. 4:2:0
    Тип развёртки. Прогрессивная
    Основные цвета. BT.709-5, BT.1361, IEC 61966-2-4, SMPTE RP177
    Характеристики трансфера. BT.709-5, BT.1361
    Коэффициенты матрицы. BT.709-5, BT.1361, IEC 61966-2-4 709, SMPTE RP177

    Аудио #1
    Идентификатор. 2
    Формат. AAC
    Формат/Информация. Advanced Audio Codec
    Версия формата. Version 4
    Профайл формата. LC
    Параметры SBR формата. Нет
    Идентификатор кодека. A_AAC
    Продолжительность. 24 м.
    Канал(ы). 2 канала(ов)
    Расположение каналов. Front: L R
    Частота. 44,1 КГц
    Заголовок. Mensh
    Язык. Russian

    Аудио #2
    Идентификатор. 3
    Формат. AAC
    Формат/Информация. Advanced Audio Codec
    Версия формата. Version 4
    Профайл формата. LC
    Параметры SBR формата. Нет
    Идентификатор кодека. A_AAC
    Продолжительность. 24 м.
    Канал(ы). 2 канала(ов)
    Расположение каналов. Front: L R
    Частота. 44,1 КГц
    Заголовок. Original
    Язык. Japanese

    Внимание! Раздача ведётся путём добавления новых серий; при каждом добавлении создается новый торрент. Чтобы начать докачку новой серии, пользователям необходимо сделать следующее:
    (1) остановить скачивание,
    (2) удалить старый торрент у себя из клиента (старые серии удалять не надо),
    (3) скачать новый торрент и запустить его у себя в клиенте вместо старого, при этом указать клиенту путь в старую папку куда и должно происходить скачивание новых серий.

    Ваш клиент при этом должен произвести хеширование (проверку) старой папки (если не производит сам - помогите ему сделать это), и будет докачивать только те серии которых у вас ещё нет. Старые серии при этом не удаляются, а продолжают раздаваться!

    Если вы уже удалили старые серии, то предотвратить повторную закачку старых серий можно, отжав галочку в соответствующих местах при запуске нового торрента. По возможности, желательно не удалять старые серии как можно дольше чтобы релизёр не столько продолжал раздавать старые серии, а смог сконцентрироваться на новых.

    Сериал Гаро: Кровавая луна (Гаро: Багровая Луна)

    Гаро: Кровавая луна (Гаро: Багровая Луна) — Garo — Guren no Tsuki (2015-2016)

    Скачать торрент Гаро: Кровавая луна (Гаро: Багровая Луна) — Garo — Guren no Tsuki (2015-2016):

    Год выпуска. 2015-2016
    Страна. Япония
    Жанр. аниме, приключения, романтика, фэнтези
    Продолжительность. 1 сезон
    Перевод. Любительский (Многоголосый) — Студийная Банда AD
    Режиссер. Онума Син, Мисора Рику
    Описание Сериала. Есть некий мир, в котором человеческая душа способна превратиться в магическое оружие. Но не все так называемые маги-рыцари способны провернуть этакий трюк. Так и студент Икки Куроганэ, обучается мастерству рыцарей магии. Но к сожалению Икки по-крупному «не везет» в учебе. Потому ему дали прозвище «Рыцарь-неудачник». Ко всему этому паренек был вынужден остаться на второй год. В это время появляется новый руководитель учебного заведения, который вводит необычное правило. Оно гласит, что рыцари, чьи способности находятся на одном уровне, должны проживать вместе! Так новой соседкой по комнате Икки становится Стелла Вермиллион. Она иностранная принцесса, красавица и гений магии, появляющийся, если верить слухам, раз в десятилетие. Их первая встреча оказалась достаточно пикантной, поэтому неудивительно, что закончилась непониманием и… дуэлью. Дуэлью, после которой проигравший обязан упасть в подчинение победителю.

    Скачать торрент Гаро: Кровавая луна (Гаро: Багровая Луна) — Garo — Guren no Tsuki (2015-2016):
    Поделиться ссылкой в социальных сетях:

    Добавить комментарий Отменить ответ Рекомендуем

    Год выпуска. 2010
    Страна. США
    Жанр. документальный

    Год выпуска. 2007
    Страна. США
    Жанр. документальный

    Год выпуска. 2012
    Страна. США
    Жанр. документальный

    Год выпуска. 2012-2014
    Страна. Великобритания
    Жанр. …

    Год выпуска. 1996-2003
    Страна. США
    Жанр. фэнтези, комедия, …

    Garo: Guren no Tsuki

    Garo: Guren no Tsuki / Garo: Crimson Moon / Гаро: Кровавая луна Жанр: приключения, комедия, фэнтези
    Тип: TV-сериал
    Продолжительность: 23 эпизода по 25 минут
    Выпуск: c 10.10.2015 по 02.04.2016
    Автор: Амэмия Кэйта
    Режиссер: Вакабаяси Ацуси
    Производство: MAPPA Информационные ссылки: AniDB || World Art || MAL || ANN Релиз подготовлен студией AniDub
    • Тип озвучки: Многоголосая, закадровая
    Описание:
    В мире, где обычные люди остерегаются живущих бок о бок с ними ведьм, истинными врагами человечества являются бесплотные демоны, питающиеся живой плотью и черпающие силу из страха. Ведьмы же и так называемые рыцари Макаи, обладающие могущественными магическими доспехами, - единственные защитники мирных людей от происков нечисти, способные изгнать ее и уничтожить. Жизнь рыцарей и помогающих им алхимиков Макаи нелегка: помимо опасных врагов им приходится противостоять собственной разрушительной силе, потеря контроля над которой чревата серьезными ранами и даже смертью.

    Второй сезон аниме "Гаро", основанного на популярной телевизионной франшизе, рассказывает новую историю о бойцах с питающимися людскими сердцами мононоке. Вместо приключений в стране, чей облик базировался на средневековой Европе, зрителей ждет действо в японском антураже эпохи Хэйан. Носители тайного знания, защищающие людей от демонов, вновь сойдутся с ними в смертельной битве, привлекая на свою сторону помимо блистающих доспехов Макаи, синтоистскую магию. Основанная на сказаниях о мудреце Сеймее и японском фольклоре, эта история добавит во франшизу "Гаро" новые краски. Качество: HDTVRip | Энкод: Leopard-Raws
    Формат: MKV
    Видео: x264, 1280x720,

    2 570 kbps, 23.976 fps
    Аудио: AAC, 192 kbps, 48.0 kHz, 2 ch
    Аудио: AAC, 192 kbps, 48.0 kHz, 2 ch
    Субтитры: ASS, Встроенные, Полные | Надписи « Shift » (01-02), « AniLibria » (03-23)

    01. Онмё
    02. Опутанный клинок
    03. Проклятье
    04. Кагуя
    05. Хакамадаре
    06. Демон в тени
    07. Мать и Дочь
    08. Братья
    09. Свет и Разрушение
    10. 1/10
    11. Белая Сталь
    12. Конфликт
    13. Сеймэй
    14. Луна души
    15. Хуже всего
    16. Абсолютное зло
    17. Потухшая звезда
    18. Ярость
    19. Сосуд
    20. Схватка
    21. Резонанс
    22. Рудра
    23. Атака на Луну

    General
    Unique ID : 187779814192335259191221110910458405921 (0x8D4513A34BC59974BD2CBA06E8522421)
    Complete name : Garo - Guren no Tsuki [AD Studio]\Garo - Guren no Tsuki - 01 (1280x720 x264 AAC).mkv
    Format : Matroska
    Format version : Version 4 / Version 2
    File size : 514 MiB
    Duration : 24mn 19s
    Overall bit rate : 2 953 Kbps
    Encoded date : UTC 2016-07-04 11:24:42
    Writing application : mkvmerge v9.2.0 ('Photograph') 64bit
    Writing library : libebml v1.3.3 + libmatroska v1.4.4
    Attachments : GOTHICB.TTF

    Video
    ID : 1
    Format : AVC
    Format/Info : Advanced Video Codec
    Format profile : High@L4.1
    Format settings, CABAC : Yes
    Format settings, ReFrames : 4 frames
    Codec ID : V_MPEG4/ISO/AVC
    Duration : 24mn 19s
    Bit rate : 2 570 Kbps
    Width : 1 280 pixels
    Height : 720 pixels
    Display aspect ratio : 16:9
    Frame rate mode : Constant
    Frame rate : 23.976 (24000/1001) fps
    Color space : YUV
    Chroma subsampling : 4:2:0
    Bit depth : 8 bits
    Scan type : Progressive
    Bits/(Pixel*Frame) : 0.116
    Stream size : 447 MiB (87%)
    Writing library : x264 core 129 r2245+729M 1a52e03
    Encoding settings : cabac=1 / ref=4 / deblock=1:1:-1 / analyse=0x3:0x113 / me=umh / subme=9 / psy=1 / fade_compensate=0.00 / psy_rd=1.00:0.00 / mixed_ref=1 / me_range=24 / chroma_me=1 / trellis=2 / 8x8dct=1 / cqm=0 / deadzone=21,11 / fast_pskip=1 / chroma_qp_offset=-2 / threads=8 / lookahead_threads=1 / sliced_threads=0 / nr=0 / decimate=1 / interlaced=0 / bluray_compat=0 / constrained_intra=0 / fgo=0 / bframes=9 / b_pyramid=2 / b_adapt=2 / b_bias=0 / direct=1 / weightb=1 / open_gop=0 / weightp=2 / keyint=240 / keyint_min=24 / scenecut=40 / intra_refresh=0 / rc=crf / mbtree=0 / crf=18.5 / qcomp=0.72 / qpmin=0 / qpmax=69 / qpstep=4 / ip_ratio=1.40 / pb_ratio=1.30 / aq=1:0.85
    Language : Japanese
    Default : Yes
    Forced : No
    Color range : Limited
    Color primaries : BT.709
    Transfer characteristics : BT.709
    Matrix coefficients : BT.709

    Audio #1
    ID : 2
    Format : AAC
    Format/Info : Advanced Audio Codec
    Format profile : LC
    Codec ID : A_AAC
    Duration : 24mn 19s
    Bit rate : 187 Kbps
    Channel(s) : 2 channels
    Channel positions : Front: L R
    Sampling rate : 48.0 KHz
    Frame rate : 46.875 fps (1024 spf)
    Compression mode : Lossy
    Stream size : 32.6 MiB (6%)
    Title : AD Studio
    Language : Russian
    Default : Yes
    Forced : No

    Audio #2
    ID : 3
    Format : AAC
    Format/Info : Advanced Audio Codec
    Format profile : LC
    Codec ID : A_AAC
    Duration : 24mn 19s
    Bit rate : 192 Kbps
    Channel(s) : 2 channels
    Channel positions : Front: L R
    Sampling rate : 48.0 KHz
    Frame rate : 46.875 fps (1024 spf)
    Compression mode : Lossy
    Stream size : 33.4 MiB (6%)
    Title : Original
    Language : Japanese
    Default : No
    Forced : No

    Text #1
    ID : 4
    Format : ASS
    Codec ID : S_TEXT/ASS
    Codec ID/Info : Advanced Sub Station Alpha
    Duration : 19mn 40s
    Bit rate : 1 bps
    Count of elements : 3
    Compression mode : Lossless
    Stream size : 240 Bytes (0%)
    Title : Надписи
    Language : Russian
    Default : Yes
    Forced : No

    Text #2
    ID : 5
    Format : ASS
    Codec ID : S_TEXT/ASS
    Codec ID/Info : Advanced Sub Station Alpha
    Duration : 23mn 55s
    Bit rate : 77 bps
    Count of elements : 195
    Compression mode : Lossless
    Stream size : 13.6 KiB (0%)
    Title : Субтитры
    Language : Russian
    Default : No
    Forced : No

    Гаро: Кровавая луна (Гаро: Багровая Луна) — Garo - Guren no Tsuki (2015-2016) Смотреть Сериал онлайн или Cкачать торрент бесплатно

    Сериал Гаро: Кровавая луна (Гаро: Багровая Луна) — Garo - Guren no Tsuki (2015-2016)

    Год выпуска. 2015-2016
    Страна. Япония
    Жанр. аниме, приключения, романтика, фэнтези
    Продолжительность. 1 сезон
    Перевод. Любительский (Многоголосый) - Студийная Банда AD

    Режиссер. Онума Син, Мисора Рику

    Описание Сериала. Есть некий мир, в котором человеческая душа способна превратиться в магическое оружие. Но не все так называемые маги-рыцари способны провернуть этакий трюк. Так и студент Икки Куроганэ, обучается мастерству рыцарей магии. Но к сожалению Икки по-крупному «не везет» в учебе. Потому ему дали прозвище «Рыцарь-неудачник». Ко всему этому паренек был вынужден остаться на второй год. В это время появляется новый руководитель учебного заведения, который вводит необычное правило. Оно гласит, что рыцари, чьи способности находятся на одном уровне, должны проживать вместе! Так новой соседкой по комнате Икки становится Стелла Вермиллион. Она иностранная принцесса, красавица и гений магии, появляющийся, если верить слухам, раз в десятилетие. Их первая встреча оказалась достаточно пикантной, поэтому неудивительно, что закончилась непониманием и. дуэлью. Дуэлью, после которой проигравший обязан упасть в подчинение победителю.

    Смотреть онлайн сериал: Гаро: Кровавая луна (Гаро: Багровая Луна) — Garo - Guren no Tsuki (2015-2016) Альтернативный плеер