File-Portal

Inca Sol Скачать Торрент

Рейтинг: 4.2/5.0 (180 проголосовавших)

Категория: Торрент-файлы

Описание

Echoes of Incas - 3 альбома (1996-1998) MP3, 320 кб

Echoes of Incas - 3 альбома (1996-1998) Год: 1996-1998
Жанр: Instrumental, Folk, Native american, Flamenco
Продолжительность: 02:34:50

Кодек: MP3
Битрейт: 320 кб/с
Тип битрейта: CBR


Группа Echoes of Incas (Эхо Инков) была образована из членов группы Ah-Kin в 1996 году. В репертуаре как традиционная инструментальная музыка региона Анд, так и другие мелодии, в том числе испанское фламенко. Также стоит отметить широкий интернациональный состав музыкантов: Arturo Garcia Orozco (ключевой композитор из Мексики), Konrad Rhee (США), Roberto E. Duenas (Сальвадор), Gilberto Reyes (Перу), Luis Felipe Gonzales (Венесуэла), Cesar Regino (Мексика), Sergio Villegas (Чили), Майкл O''Day (Пуэрто-Рико), Pathik Desai (США), Gino Gambao (Перу) и Kambiz Pakandam (Иран).

(6:46) 01. Huayras Puncco
(4:47) 02. Bailando con la Luna
(4:11) 03. Tiahuanaco
(5:15) 04. Flor Ardiente
(4:55) 05. Tormenta de Fuego
(6:40) 06. Vuelo Nocturno
(5:32) 07. Ventana al Sol
(3:50) 08. Kenko
(4:03) 09. Cristalino
(3:20) 10. Aranjuez
(4:08) 11. Orilla del Mar

(4:14) 01. Celebrando (Celebration)
(4:54) 02. Pisac (Pisac)
(4:04) 03. Mar Turqueza (Turquoise Sea)
(4:20) 04. Camino Mistico (Mystic Path)
(4:55) 05. Mujer Gitana (Gypsy Woman)
(4:39) 06. Piedra Magica (Magic Stone)
(5:11) 07. Tierra Olvidada (Forgotten Lan
(4:00) 08. Cordilleras (Mountain Ranges)
(4:03) 09. Lejanias (Distant Places)
(3:46) 10. Llanuras Doradas (Golden Plain
(5:24) 11. Joven Flor (Young Flower)

(5:04) 01. Brisa De Montana
(4:21) 02. Cabalgando
(4:47) 03. Gota De Rocio
(5:12) 04. Mujer Aguila
(5:48) 05. Inti Raimi
(6:17) 06. Iskayninckic
(4:56) 07. Tambores Lejanos
(5:30) 08. Kalkita Rikuni
(5:12) 09. Caminito A Nazca
(4:46) 10. Samay

Время раздачи: С 08:00 до 23:59 (GMT +2)

Inca sol скачать торрент:

  • скачать
  • скачать
  • Другие статьи

    Inca Sol Armony скачать бесплатно в MP3 - слушать музыку онлайн на без регистрации - 5 песен

    Информация для правообладателей

    Ресурс zaycev.men действует в соответствии с законодательством Российской Федерации о защите информации и авторских прав.

    Весь размещенный на сайте контент представляет собой материал, находящийся в свободном доступе для просмотра и скачивания в сети Интернет. Сбор доступных в Интернете материалов и их размещение в каталоге осуществляется в автоматическом режиме. Администрация сайта в данном случае не осуществляет контроль над добавляемым контентом.

    Администрация сайта также не осуществляет деятельность, связанную с публикацией нелицензионного контента, незаконно украденного и находящегося под защитой правообладателей. Автоматизированная система публикует только находящийся в свободном доступе материал из открытых источников.

    Ресурс zaycev.men всегда открыт для сотрудничества с правообладателями. Если Ваши исключительные права на объекты авторской собственности нарушаются каким-либо образом с использованием данного ресурса (размещение информации, защищенной авторским правом), администрация готова оказать Вам содействие и удалить с сайта соответствующие материалы.

    При возникновении спорных ситуаций мы просим Вас прислать нам письмо в электронном виде, где необходимо указать следующее:

    1. Документальное подтверждение Ваших прав на материал, защищённый авторским правом:
    - отсканированный документ с печатью, либо
    - email с официального почтового домена компании правообладателя, либо
    - иная информация, позволяющая однозначно идентифицировать Вас как правообладателя данного материала.

    2. Прямые ссылки на страницы сайта, которые содержат данные, опубликованные с нарушением авторских прав.

    При получении письма, содержащего данное подтверждение, в течение 48 часов мы удалим с сайта защищенный авторским правом контент.

    По вопросам просим Вас обращаться на email: muzofonchik@yandex.ru .

    Inca Sol Armony

    Andina) CD Echoes of Incas - Ventana Al Sol - 1995, FLAC (tracks

    Echoes of Incas / Ventana Al Sol
    Жанр. Andina
    Носитель. CD
    Страна-производитель диска. США
    Год издания. 1995
    Издатель (лейбл). Earthtone Records
    Номер по каталогу. ET 7501-2
    Страна исполнителя (группы). Мексика, Сальвадор, США, Перу, Венесуэла, Иран
    Аудиокодек. FLAC (*.flac)
    Тип рипа. tracks+.cue
    Битрейт аудио. lossless
    Продолжительность. 00:53:33
    Источник (релизер). Собственный рип
    Наличие сканов в содержимом раздачи. нет
    Треклист :
    01. Huayras Puncco
    02. Bailando con la Luna
    03. Ayacucho
    04. Flor Ardiente
    05. Tormenta de Fuego
    06. Vuelo Nocturno
    07. Ventana al Sol
    08. Kenko
    09. Cristalino
    10. Aranjuez
    11. Orilla Del Mar

    Лог создания рипа

    Exact Audio Copy V1.0 beta 3 from 29. August 2011
    Отчёт EAC об извлечении, выполненном 7. июня 2015, 20:18
    Echoes of Incas / Ventana al Sol
    Дисковод: HL-DT-STDVDRAM GSA-H12N Adapter: 0 ID: 0
    Режим чтения. ДостоверностьИспользование точного потока. ДаОтключение кэша аудио. ДаИспользование указателей C2. Нет
    Коррекция смещения при чтении. 667Способность читать области Lead-in и Lead-out. НетЗаполнение пропущенных сэмплов тишиной. ДаУдаление блоков с тишиной в начале и конце. НетПри вычислениях CRC использовались нулевые сэмплы. ДаИнтерфейс. Встроенный Win32-интерфейс для Win NT/2000Обработка зазоров. Добавлено к предыдущему треку
    Выходной формат. Пользовательский кодировщикВыбранный битрейт. 896 kBit/sКачество. ВысокийДобавление ID3-тега. НетУтилита сжатия. C:\Program Files\Exact Audio Copy\Flac\flac.exeДополнительные параметры. -V -8 -T "Genre=%genre%" -T "Artist=%artist%" -T "Title=%title%" -T "Album=%albumtitle%" -T "Date=%year%" -T "Tracknumber=%tracknr%" -T "Comment=%comment%" %source%
    TOC извлечённого CD
    Трек | Старт | Длительность | Начальный сектор | Конечный сектор --------------------------------------------------------------------- 1 | 0:00.00 | 6:46.45 | 0 | 30494 2 | 6:46.45 | 4:47.47 | 30495 | 52066 3 | 11:34.17 | 4:11.13 | 52067 | 70904 4 | 15:45.30 | 5:15.52 | 70905 | 94581 5 | 21:01.07 | 4:55.45 | 94582 | 116751 6 | 25:56.52 | 6:40.18 | 116752 | 146769 7 | 32:36.70 | 5:32.72 | 146770 | 171741 8 | 38:09.67 | 3:50.25 | 171742 | 189016 9 | 42:00.17 | 4:03.20 | 189017 | 207261 10 | 46:03.37 | 3:20.55 | 207262 | 222316 11 | 49:24.17 | 4:08.73 | 222317 | 240989
    Трек 1
    Имя файла D:\AUDIO\FOLKLORE ANDINO\Echoes of Incas\Echoes of Incas - Ventana al Sol - 1995 [FLAC]\01. Huayras Puncco.wav
    Длина предзазора 0:00:02.00
    Пиковый уровень 100.0 % Скорость извлечения 4.3 X Качество трека 100.0 % CRC теста 31FC15BC CRC копии 31FC15BC Точность не определена (достоверность 1) [86C5CE64], AccurateRip вернул [76105379] (AR v2) Копирование. OK
    Трек 2
    Имя файла D:\AUDIO\FOLKLORE ANDINO\Echoes of Incas\Echoes of Incas - Ventana al Sol - 1995 [FLAC]\02. Bailando con la Luna.wav
    Длина предзазора 0:00:02.40
    Пиковый уровень 100.0 % Скорость извлечения 4.3 X Качество трека 100.0 % CRC теста 472E0227 CRC копии 472E0227 Точность не определена (достоверность 1) [FDA9BA39], AccurateRip вернул [FB5897D8] (AR v2) Копирование. OK
    Трек 3
    Имя файла D:\AUDIO\FOLKLORE ANDINO\Echoes of Incas\Echoes of Incas - Ventana al Sol - 1995 [FLAC]\03. Tiahuanaco.wav
    Длина предзазора 0:00:02.12
    Пиковый уровень 100.0 % Скорость извлечения 4.2 X Качество трека 100.0 % CRC теста 5AE9A640 CRC копии 5AE9A640 Точность не определена (достоверность 1) [861B4035], AccurateRip вернул [56D37C86] (AR v2) Копирование. OK
    Трек 4
    Имя файла D:\AUDIO\FOLKLORE ANDINO\Echoes of Incas\Echoes of Incas - Ventana al Sol - 1995 [FLAC]\04. Flor Ardiente.wav
    Длина предзазора 0:00:02.43
    Пиковый уровень 100.0 % Скорость извлечения 3.9 X Качество трека 99.9 % CRC теста 12370771 CRC копии 12370771 Точность не определена (достоверность 1) [A9C32780], AccurateRip вернул [53162F8A] (AR v2) Копирование. OK
    Трек 5
    Имя файла D:\AUDIO\FOLKLORE ANDINO\Echoes of Incas\Echoes of Incas - Ventana al Sol - 1995 [FLAC]\05. Tormenta de Fuego.wav
    Длина предзазора 0:00:02.40
    Пиковый уровень 100.0 % Скорость извлечения 4.4 X Качество трека 100.0 % CRC теста 3898553C CRC копии 3898553C Точность не определена (достоверность 1) [D41ECEB7], AccurateRip вернул [D255E3D1] (AR v2) Копирование. OK
    Трек 6
    Имя файла D:\AUDIO\FOLKLORE ANDINO\Echoes of Incas\Echoes of Incas - Ventana al Sol - 1995 [FLAC]\06. Vuelo Nocturno.wav
    Длина предзазора 0:00:02.40
    Пиковый уровень 100.0 % Скорость извлечения 4.5 X Качество трека 100.0 % CRC теста BF4392D4 CRC копии BF4392D4 Точность не определена (достоверность 1) [FD90EADD], AccurateRip вернул [E12C43BB] (AR v2) Копирование. OK
    Трек 7
    Имя файла D:\AUDIO\FOLKLORE ANDINO\Echoes of Incas\Echoes of Incas - Ventana al Sol - 1995 [FLAC]\07. Ventana al Sol.wav
    Длина предзазора 0:00:02.40
    Пиковый уровень 100.0 % Скорость извлечения 3.9 X Качество трека 99.9 % CRC теста 494A3C1F CRC копии 494A3C1F Точность не определена (достоверность 1) [83C659CA], AccurateRip вернул [E31CE1F4] (AR v2) Копирование. OK
    Трек 8
    Имя файла D:\AUDIO\FOLKLORE ANDINO\Echoes of Incas\Echoes of Incas - Ventana al Sol - 1995 [FLAC]\08. Kenko.wav
    Длина предзазора 0:00:02.40
    Пиковый уровень 100.0 % Скорость извлечения 4.1 X Качество трека 100.0 % CRC теста 28DAA49C CRC копии 28DAA49C Точность не определена (достоверность 1) [EE0C2FEB], AccurateRip вернул [18549B1F] (AR v2) Копирование. OK
    Трек 9
    Имя файла D:\AUDIO\FOLKLORE ANDINO\Echoes of Incas\Echoes of Incas - Ventana al Sol - 1995 [FLAC]\09. Cristalino.wav
    Длина предзазора 0:00:02.42
    Пиковый уровень 100.0 % Скорость извлечения 4.2 X Качество трека 100.0 % CRC теста 3CB1B435 CRC копии 3CB1B435 Точность не определена (достоверность 1) [35BA82EE], AccurateRip вернул [0FDB262B] (AR v2) Копирование. OK
    Трек 10
    Имя файла D:\AUDIO\FOLKLORE ANDINO\Echoes of Incas\Echoes of Incas - Ventana al Sol - 1995 [FLAC]\10. Aranjuez.wav
    Длина предзазора 0:00:02.40
    Пиковый уровень 100.0 % Скорость извлечения 4.0 X Качество трека 100.0 % CRC теста 230B7335 CRC копии 230B7335 Точность не определена (достоверность 1) [7258715A], AccurateRip вернул [1485241E] (AR v2) Копирование. OK
    Трек 11
    Имя файла D:\AUDIO\FOLKLORE ANDINO\Echoes of Incas\Echoes of Incas - Ventana al Sol - 1995 [FLAC]\11. Orilla del Mar.wav
    Длина предзазора 0:00:02.40
    Пиковый уровень 80.9 % Скорость извлечения 4.3 X Качество трека 100.0 % CRC теста B42433CE CRC копии B42433CE Точность не определена (достоверность 1) [01FCCDC3], AccurateRip вернул [42CD473B] (AR v2) Копирование. OK
    Ни один трек не прошёл проверки на точностьВ вашей базе может быть иной вариант штамповки диска
    Ошибок не произошло
    Конец отчёта
    ==== Контрольная сумма отчёта E95D607D5B4477BC8A3348B67F9990A43258BEBEB61F2B1C3EB8529D48BED41B ====

    Содержание индексной карты (.CUE)

    REM GENRE "Folkore andino"REM DATE 1995REM DISCID B10C8D0BREM COMMENT "ExactAudioCopy v1.0b3"PERFORMER "Echoes of Incas"TITLE "Ventana al Sol"FILE "01. Huayras Puncco.wav" WAVE TRACK 01 AUDIO TITLE "Huayras Puncco" PERFORMER "Echoes of Incas" INDEX 01 00:00:00 TRACK 02 AUDIO TITLE "Bailando con la Luna" PERFORMER "Echoes of Incas" INDEX 00 06:44:05FILE "02. Bailando con la Luna.wav" WAVE INDEX 01 00:00:00 TRACK 03 AUDIO TITLE "Tiahuanaco" PERFORMER "Echoes of Incas" INDEX 00 04:45:35FILE "03. Tiahuanaco.wav" WAVE INDEX 01 00:00:00 TRACK 04 AUDIO TITLE "Flor Ardiente" PERFORMER "Echoes of Incas" INDEX 00 04:08:45FILE "04. Flor Ardiente.wav" WAVE INDEX 01 00:00:00 TRACK 05 AUDIO TITLE "Tormenta de Fuego" PERFORMER "Echoes of Incas" INDEX 00 05:13:12FILE "05. Tormenta de Fuego.wav" WAVE INDEX 01 00:00:00 TRACK 06 AUDIO TITLE "Vuelo Nocturno" PERFORMER "Echoes of Incas" INDEX 00 04:53:05FILE "06. Vuelo Nocturno.wav" WAVE INDEX 01 00:00:00 TRACK 07 AUDIO TITLE "Ventana al Sol" PERFORMER "Echoes of Incas" INDEX 00 06:37:53FILE "07. Ventana al Sol.wav" WAVE INDEX 01 00:00:00 TRACK 08 AUDIO TITLE "Kenko" PERFORMER "Echoes of Incas" INDEX 00 05:30:32FILE "08. Kenko.wav" WAVE INDEX 01 00:00:00 TRACK 09 AUDIO TITLE "Cristalino" PERFORMER "Echoes of Incas" INDEX 00 03:47:58FILE "09. Cristalino.wav" WAVE INDEX 01 00:00:00 TRACK 10 AUDIO TITLE "Aranjuez" PERFORMER "Echoes of Incas" INDEX 00 04:00:55FILE "10. Aranjuez.wav" WAVE INDEX 01 00:00:00 TRACK 11 AUDIO TITLE "Orilla del Mar" PERFORMER "Echoes of Incas" INDEX 00 03:18:15FILE "11. Orilla del Mar.wav" WAVE INDEX 01 00:00:00

    « Эхо Инков » – очень известный коллектив, выступавший с 1996 по 1999 годы. За эти годы были изданы 4 альбома и 5-й сборник из первых четырёх. Лидер группы продюсер, музыкант, аранжировщик Артуро Гарсия Оронсо пригласил в состав группы музыкантов из многих стран мира. Частично из группы Ah-Kin.
    Группа играла на андийских народных инструментах: сампоньи, флеты, кены, чаранго, барабаны, добавив в музыку современные инструменты электо- и бас-гитары.
    Состав группы постоянно менялся, бессменным оставался только лидер Артуро Гарсия Оронсо.

    Arturo Garcia Oronzo (Mexico) – guitar, huankara, Indigenous percussions from Mesoamerica, bombo, bongo, ocarinas, whistles and special effects;
    Konrad Rhee (USA) – guitar, charango, flute;
    Roberto E. Duenas (El Salvador) – flute, zamponas, charango;
    Gilberto Reyes A. “Zarandonga” (Peru) – cajon peruano (afro-peruan box)
    Luis Felipe Gonzales (Venezuela) – acoustic and electric bass
    Cesar Regino (Mexico) – bombo
    Kambiz Pakandam (Iran) – acoustic guitar

    Inca Sol скачать бесплатно в MP3 - слушать музыку онлайн на без регистрации - 25 песен

    Информация для правообладателей

    Ресурс zaycev.webcam действует в соответствии с законодательством Российской Федерации о защите информации и авторских прав.

    Весь размещенный на сайте контент представляет собой материал, находящийся в свободном доступе для просмотра и скачивания в сети Интернет. Сбор доступных в Интернете материалов и их размещение в каталоге осуществляется в автоматическом режиме. Администрация сайта в данном случае не осуществляет контроль над добавляемым контентом.

    Администрация сайта также не осуществляет деятельность, связанную с публикацией нелицензионного контента, незаконно украденного и находящегося под защитой правообладателей. Автоматизированная система публикует только находящийся в свободном доступе материал из открытых источников.

    Ресурс zaycev.webcam всегда открыт для сотрудничества с правообладателями. Если Ваши исключительные права на объекты авторской собственности нарушаются каким-либо образом с использованием данного ресурса (размещение информации, защищенной авторским правом), администрация готова оказать Вам содействие и удалить с сайта соответствующие материалы.

    При возникновении спорных ситуаций мы просим Вас прислать нам письмо в электронном виде, где необходимо указать следующее:

    1. Документальное подтверждение Ваших прав на материал, защищённый авторским правом:
    - отсканированный документ с печатью, либо
    - email с официального почтового домена компании правообладателя, либо
    - иная информация, позволяющая однозначно идентифицировать Вас как правообладателя данного материала.

    2. Прямые ссылки на страницы сайта, которые содержат данные, опубликованные с нарушением авторских прав.

    При получении письма, содержащего данное подтверждение, в течение 48 часов мы удалим с сайта защищенный авторским правом контент.

    По вопросам просим Вас обращаться на email: muzofonchik@yandex.ru .

    Inca Sol скачать с торрент

    Inca Sol скачать с торрент

    40 слушать скачать Inca Sol — 20 слушать скачать Inca Sol Papu.

    Juan Vargas Y Su Rayo de Sol – Inca Tiempo Nixicai

    Высоко в горы, 35 слушать скачать Inca Sol Armony, mozilla Firefox и если нужно Adobe Flash Player или Обновите страницу (F5). 18 слушать скачать Inca Sol, 07.02) Server Error in '/' Application, ===- 05 Echoes of Incas.